<?xml version="1.0" standalone="no"?>
<!DOCTYPE svg PUBLIC "-//W3C//DTD SVG 1.1//EN" "http://www.w3.org/Graphics/SVG/1.1/DTD/svg11.dtd" >
<!--
2013-9-30: Created.
-->
<svg>
<metadata>
Created by iconfont
</metadata>
<defs>

<font id="iconfont" horiz-adv-x="1024" >
  <font-face
    font-family="iconfont"
    font-weight="500"
    font-stretch="normal"
    units-per-em="1024"
    ascent="896"
    descent="-128"
  />
    <missing-glyph />
    
    <glyph glyph-name="zhipaidingdan" unicode="&#58899;" d="M691.2-108.8h-512c-64 0-121.6 51.2-121.6 121.6V665.6c0 64 51.2 121.6 121.6 121.6h83.2c19.2 0 32-12.8 32-32s-12.8-38.4-32-38.4H172.8c-25.6 0-51.2-25.6-51.2-51.2v-652.8c0-25.6 25.6-51.2 51.2-51.2h512c25.6 0 51.2 25.6 51.2 51.2v89.6c0 19.2 12.8 32 32 32s32-12.8 32-32v-89.6c6.4-70.4-44.8-121.6-108.8-121.6zM774.4 339.2c-19.2 0-32 12.8-32 32V665.6c0 25.6-25.6 51.2-51.2 51.2H601.6c-19.2 0-32 12.8-32 32s12.8 32 32 32h83.2c64 0 121.6-51.2 121.6-121.6v-288c0-19.2-12.8-32-32-32zM563.2 646.4H300.8c-44.8 0-76.8 32-76.8 76.8V806.4C224 851.2 256 883.2 300.8 883.2h262.4c44.8 0 76.8-32 76.8-76.8v-89.6c0-38.4-38.4-70.4-76.8-70.4zM300.8 819.2c-6.4 0-6.4-6.4-6.4-6.4v-89.6c0-6.4 6.4-6.4 6.4-6.4h262.4c6.4 0 6.4 6.4 6.4 6.4V806.4c0 6.4-6.4 6.4-6.4 6.4H300.8zM601.6 428.8H262.4c-19.2 0-32 12.8-32 32s12.8 32 32 32h345.6c19.2 0 32-12.8 32-32s-19.2-32-38.4-32zM921.6 198.4h-249.6c-19.2 0-32 12.8-32 32s12.8 32 32 32h249.6c19.2 0 32-12.8 32-32s-12.8-32-32-32zM531.2 198.4H262.4c-19.2 0-32 12.8-32 32s12.8 32 32 32h275.2c19.2 0 32-12.8 32-32s-19.2-32-38.4-32zM883.2 96c-6.4 0-19.2 6.4-25.6 12.8-12.8 12.8-12.8 32 0 51.2l76.8 76.8-76.8 76.8c-12.8 12.8-12.8 32 0 51.2 12.8 12.8 32 12.8 51.2 0l102.4-102.4c12.8-12.8 12.8-32 0-51.2l-102.4-102.4c-6.4-6.4-19.2-12.8-25.6-12.8z"  horiz-adv-x="1024" />

    
    <glyph glyph-name="shouye" unicode="&#58897;" d="M982.4 385.92c-8.96 0-17.92 3.2-24.96 9.6L547.84 780.8c-20.48 19.2-51.2 19.2-71.04 0L65.92 395.52c-14.72-13.44-37.76-12.8-51.2 1.92-13.44 14.08-12.8 37.12 1.92 50.56L426.88 833.28c48 44.8 122.88 44.8 170.24 0L1007.36 448a35.712 35.712 0 0 0-24.96-62.08zM795.52-99.2H229.12c-69.12 0-125.44 56.96-125.44 126.72V483.84c0 19.84 16 36.48 36.48 36.48s36.48-16 36.48-36.48v-456.96c0-30.08 23.68-54.4 53.12-54.4h566.4c29.44 0 53.12 24.32 53.12 54.4V483.84a36.48 36.48 0 1 0 72.96 0v-456.96c-1.92-69.12-58.24-126.08-126.72-126.08zM618.88-99.2H405.12a36.48 36.48 0 0 0-36.48 36.48v262.4c0 78.72 64 143.36 143.36 143.36s143.36-64 143.36-143.36v-262.4c0-20.48-16.64-36.48-36.48-36.48zM441.6-26.88h140.8v225.92c0 39.04-32 70.4-70.4 70.4-39.04 0-70.4-32-70.4-70.4v-225.92z"  horiz-adv-x="1024" />

    
    <glyph glyph-name="delete" unicode="&#58933;" d="M511.89 767.255c-201.852 0-365.49-163.638-365.49-365.49 0-201.851 163.638-365.49 365.49-365.49 201.851 0 365.489 163.638 365.489 365.49 0 201.853-163.638 365.49-365.489 365.49v0zM688.52 269.311l-44.187-44.175-132.442 132.455-132.442-132.455-44.187 44.175 132.442 132.455-132.442 132.442 44.152 44.187 132.466-132.455 132.455 132.455 44.187-44.187-132.455-132.455 132.455-132.442zM688.52 269.311z"  horiz-adv-x="1024" />

    
    <glyph glyph-name="bianji" unicode="&#59009;" d="M825.986-15.999 198.014-15.999c-47.151 0-85.511 38.361-85.511 85.515L112.503 697.489c0 47.151 38.36 85.511 85.511 85.511l427.973 0c13.808 0 25-11.193 25-25s-11.192-25-25-25L198.014 733c-19.581 0-35.511-15.93-35.511-35.511l0-627.973c0-19.583 15.93-35.515 35.511-35.515l627.972 0c19.581 0 35.511 15.933 35.512 35.517L861.498 497.489c0 13.807 11.193 25 25 25s25-11.193 25-25l0-427.972C911.497 22.363 873.137-15.999 825.986-15.999zM890.522 714.948l-47.075 47.076c-11.69 11.688-27.231 18.126-43.761 18.126-16.532 0-32.074-6.438-43.761-18.126L351.963 358.062c-3.305-3.306-5.618-7.472-6.675-12.025l-30-129.243c-1.952-8.407 0.572-17.227 6.675-23.33 4.742-4.742 11.124-7.323 17.678-7.323 1.881 0 3.777 0.213 5.652 0.648l129.242 30c4.553 1.057 8.719 3.369 12.025 6.675l403.961 403.963C914.652 651.556 914.652 690.818 890.522 714.948zM456.263 263.876l-83.199-19.312 19.312 83.2 323.252 323.252 63.886-63.886L456.263 263.876zM855.167 662.782l-40.296-40.297-63.886 63.886 40.298 40.298c2.244 2.244 5.229 3.48 8.404 3.48s6.16-1.237 8.405-3.482l47.075-47.076C859.802 674.958 859.802 667.417 855.167 662.782z"  horiz-adv-x="1024" />

    
    <glyph glyph-name="shanchu" unicode="&#58893;" d="M733.855 104.055c0-26.574-21.63-48.203-48.202-48.203H338.347c-26.573 0-48.202 21.63-48.202 48.203V615.743h443.71v-511.688zM386.55 702.26c0 5.562 4.326 9.888 9.888 9.888H628.18c5.562 0 9.888-4.326 9.888-9.888v-29.045H386.55V702.26z m491.913-29.045H695.54V702.26c0 37.08-30.28 67.36-67.36 67.36H396.438c-37.08 0-67.36-30.28-67.36-67.36v-29.045h-183.54c-16.068 0-29.046-12.978-29.046-29.045s12.978-29.045 29.045-29.045h86.518v-511.07c0-58.709 47.584-106.293 106.292-106.293h347.306c58.708 0 106.292 47.584 106.292 106.293V615.743h86.518c16.067 0 29.045 12.977 29.045 29.045s-12.978 28.427-29.045 28.427zM512 142.987c16.068 0 29.045 12.978 29.045 29.046v308.99c0 16.068-12.977 29.045-29.045 29.045s-29.045-12.977-29.045-29.045v-308.99c0-16.068 12.977-29.046 29.045-29.046m-135.338 0c16.068 0 29.045 12.978 29.045 29.046v308.99c0 16.068-12.977 29.045-29.045 29.045s-29.045-12.977-29.045-29.045v-308.99c0.618-16.068 13.596-29.046 29.045-29.046m270.676 0c16.067 0 29.045 12.978 29.045 29.046v308.99c0 16.068-12.978 29.045-29.045 29.045s-29.045-12.977-29.045-29.045v-308.99c0-16.068 12.977-29.046 29.045-29.046"  horiz-adv-x="1024" />

    
    <glyph glyph-name="quan" unicode="&#59208;" d="M512-147.021485c-246.509044 0-447.072649 200.563605-447.072649 447.072649s200.563605 447.072649 447.072649 447.072649 447.072649-200.563605 447.072649-447.072649S758.509044-147.021485 512-147.021485zM512 703.838913c-222.666533 0-403.890077-181.121215-403.890077-403.890077s181.121215-403.890077 403.890077-403.890077 403.890077 181.121215 403.890077 403.890077S734.666533 703.838913 512 703.838913z"  horiz-adv-x="1024" />

    
    <glyph glyph-name="gou" unicode="&#58894;" d="M512 834C264.5 834 62 631.5 62 384s202.5-450 450-450 450 202.5 450 450S759.5 834 512 834z m275.0000001-320.0000001L479.4999998 211.49999971c-2.49999961-2.49999961-2.49999961-5.0000001-5.00000009-7.49999971l-14.99999942-15.00000029c-7.49999971-7.49999971-17.4999999-12.49999981-20.00000039-7.49999971l-150.00000029 152.4999999c-2.49999961 2.49999961 0 12.49999981 7.50000059 20.00000039l14.99999941 14.99999942c7.49999971 7.49999971 17.4999999 12.49999981 20.00000039 7.50000058l110.00000039-115.00000049 299.99999971 292.5c7.49999971 7.49999971 20.00000039 7.49999971 29.99999971 0l15.00000029-14.99999941c7.49999971-5.0000001 7.49999971-17.4999999 0-25.00000049z"  horiz-adv-x="1024" />

    
    <glyph glyph-name="warming" unicode="&#58888;" d="M551.74027057 618.2684334200001c-4.10468907 22.20063147-21.8916768 38.884208-43.2537152 38.88420693s-39.14902613-16.68357653-43.25371627-38.88420693h-0.9047968l0.3530912-6.0687616c-0.08827307-1.25788907-0.3530912-2.36130027-0.3530912-3.61918827 0-3.57505173 0.44136427-7.01769493 1.1034112-10.39413333l16.5732352-271.196384h52.96373334l16.5732352 271.196384c0.66204693 3.35437013 1.08134293 6.81908053 1.08134293 10.39413333 0 1.25788907-0.24275093 2.36130027-0.331024 3.61918827l0.331024 6.0687616h-0.8827296z m-43.2537152 215.42998613c-243.765584 0-441.364448-197.6209312-441.364448-441.36444693 0-243.78765227 197.59886293-441.364448 441.364448-441.364448s441.364448 197.57679467 441.36444693 441.364448c0 243.74351573-197.59886293 441.364448-441.36444693 441.36444693z m0-838.59245013c-219.3801984 0-397.2280032 177.84780373-397.2280032 397.2280032 0 219.33606187 177.84780373 397.2280032 397.2280032 397.22800213s397.2280032-177.89194027 397.22800213-397.22800213c0-219.40226667-177.82573547-397.2280032-397.22800213-397.2280032z m0 251.710144c-24.36331733 0-44.15851307-21.7592672-44.15851307-48.61629333s19.77312747-48.6162944 44.15851307-48.6162944 44.1364448 21.7592672 44.1364448 48.6162944-19.7510592 48.6162944-44.1364448 48.61629333z"  horiz-adv-x="1024" />

    
    <glyph glyph-name="searsm01" unicode="&#58908;" d="M982.64730125-44.28434344000004L769.00974781 169.35416999999995c63.85238812 73.6387125 102.49402875 169.73004281 102.49402875 274.84789312 0 231.81722813-187.92506719 419.74133531-419.74133531 419.74133532S32.02014594 676.01833125 32.02014594 444.20206313s187.92506719-419.74133531 419.74133531-419.74133532c105.11785031 0 201.20918063 38.64164063 274.84789312 102.49402875l213.63851344-213.63851343c5.42512219-5.42608125 12.92147906-8.78188594 21.19970625-8.78188594 16.55837344 0 29.98159219 13.42321875 29.98159219 29.98159219C991.42918719-57.204863440000054 988.0733825-49.709464690000004 982.64730125-44.28434344000004zM451.76148125 84.42295311999999c-198.70048125 0-359.77815 161.07862875-359.77815 359.77815S253.06100094 803.98021313 451.76148125 803.98021313s359.77815-161.07862875 359.77815-359.77815S650.4619625 84.42295311999999 451.76148125 84.42295311999999z"  horiz-adv-x="1024" />

    
    <glyph glyph-name="shezhi" unicode="&#58898;" d="M1037.12 483.36c-5.76 31.2-24.96 51.84-48.96 51.84h-5.28c-68.64 0-124.32 55.68-124.32 124.32 0 22.08 10.56 47.04 11.04 47.52 12.48 27.84 2.88 61.44-22.08 78.72l-1.44 0.96-125.76 69.6-1.92 0.96c-8.16 3.36-17.28 5.28-26.88 5.28-19.68 0-38.88-7.68-51.36-21.12-13.92-14.4-61.44-55.2-98.4-55.2-36.96 0-84.96 41.28-98.88 56.16C430.88 855.84 411.68 864 392 864c-9.12 0-18.24-1.92-26.4-5.28l-1.44-0.48-130.56-72-1.44-0.96C207.2 768 197.6 734.4 210.08 706.56c0-0.48 11.04-24.96 11.04-47.52 0-68.64-55.68-124.32-124.32-124.32h-5.28c-23.52 0-42.72-20.16-48.96-51.84-0.48-1.92-10.56-56.64-10.56-99.36 0-42.72 10.08-96.96 10.56-99.36 5.76-31.2 24.96-51.84 48.96-51.84h5.28c68.64 0 124.32-55.68 124.32-124.32 0-22.08-10.56-47.04-11.04-47.52-12.48-27.84-2.88-61.44 22.08-78.72l1.44-0.96 123.36-69.12 1.44-0.48c8.16-3.84 17.28-5.28 26.4-5.28 19.68 0 38.88 8.16 51.84 21.6 17.76 19.2 65.28 58.56 100.32 58.56 37.92 0 86.88-44.16 100.8-59.52 12.48-13.92 32.16-22.08 51.84-22.08 9.12 0 18.24 1.92 25.92 5.28l1.44 0.48 128.16 71.04 1.44 0.96c24.96 17.28 34.08 51.36 22.08 78.72 0 0.48-11.04 25.44-11.04 47.52 0 68.64 55.68 124.32 124.32 124.32h5.28c23.52 0 42.72 20.16 48.96 51.84 0 0.48 10.56 55.68 10.56 99.36 0.96 42.72-9.12 96.96-9.6 99.36zM385.76-22.559999999999945l-108 60.48c4.8 12 14.4 40.8 14.4 70.56 0 102.72-78.72 187.2-180.48 195.36-2.4 14.4-8.16 51.36-8.16 80.16s5.76 65.76 8.16 80.16C213.44 471.84 292.16 556.8 292.16 659.04c0 29.28-9.6 58.08-14.4 70.08l115.2 63.36c4.32-4.32 20.64-20.64 43.68-36.96 37.44-26.88 72.96-40.32 106.08-40.32 32.64 0 67.68 13.44 105.12 39.36 22.56 15.84 39.36 32.16 43.2 36.48L801.92 729.6c-4.8-12-14.4-40.8-14.4-70.08 0-102.72 78.72-187.2 180.48-195.36 2.4-14.4 8.16-51.84 8.16-80.16 0-28.8-5.76-65.76-8.16-80.16-101.76-7.68-180.48-92.64-180.48-195.36 0-29.28 9.6-58.08 14.4-70.08L689.6-24c-4.8 5.28-21.12 22.08-43.68 38.88-37.92 28.32-74.88 42.72-108.48 42.72-33.6 0-69.6-13.92-107.52-41.76-22.56-16.8-39.36-33.12-44.16-38.4z m331.68 407.04c0 99.36-80.64 180-180 180S357.44 483.84 357.44 384.48s80.64-180 180-180 180 80.64 180 180z m-180 108.48c60 0 108.48-48.48 108.48-108.48 0-60-48.48-108.48-108.48-108.48-60 0-108.48 48.48-108.48 108.48 0 59.52 48.96 108.48 108.48 108.48z"  horiz-adv-x="1083" />

    
    <glyph glyph-name="xiaoxi" unicode="&#58902;" d="M511.36 321.28c-21.76 0-39.68 17.92-39.68 39.68v40.32c0 21.76 17.92 39.68 39.68 39.68 21.76 0 39.68-17.92 39.68-39.68v-39.68c0-22.4-17.92-40.32-39.68-40.32zM293.76 321.28c-21.76 0-39.68 17.92-39.68 39.68v40.32c0 21.76 17.92 39.68 39.68 39.68s39.68-17.92 39.68-39.68v-39.68c0-22.4-17.92-40.32-39.68-40.32zM728.96 321.28c-21.76 0-39.68 17.92-39.68 39.68v40.32c0 21.76 17.92 39.68 39.68 39.68s39.68-17.92 39.68-39.68v-39.68c0.64-22.4-17.28-40.32-39.68-40.32zM117.12-120.32c-21.12 0-40.96 7.68-56.96 22.4-22.4 20.48-31.36 50.56-24.32 80.64l39.04 168.96A491.648 491.648 0 0 0 23.04 460.8C56.96 684.16 245.12 860.8 470.4 881.28c155.52 14.08 304.64-42.88 410.88-156.16a500.672 500.672 0 0 0 128.64-421.76c-32-204.16-196.48-373.12-400-410.24-104.96-19.2-210.56-5.76-305.92 39.68l-161.28-49.28c-8.96-2.56-17.28-3.84-25.6-3.84zM477.44 801.92c-189.44-17.28-346.88-165.76-375.68-353.28-14.08-94.72 2.56-188.8 49.92-272 5.12-8.96 6.4-19.2 4.48-28.8l-42.88-183.68c0-0.64-0.64-2.56 1.28-3.84 1.92-1.92 3.2-1.28 3.84-0.64l176.64 54.4c10.24 3.2 20.48 1.92 30.08-2.56 83.2-42.88 176.64-56.32 269.44-39.04 170.88 31.36 308.48 172.8 335.36 344.32 20.48 130.56-19.2 259.84-108.16 354.56a418.816 418.816 0 0 1-344.32 130.56z"  horiz-adv-x="1024" />

    
    <glyph glyph-name="xing-copy" unicode="&#58891;" d="M1080.268671 442.265298c-77.160905-88.184891-214.583736-234.424712-214.583736-234.424711s22.045973-160.203803 35.273956-269.700668c5.878993-55.851931-37.479954-80.101901-85.980894-58.054929-92.594886 43.357947-233.689712 110.966863-265.289673 126.399845-32.33596-14.697982-174.165786-81.5719-267.495671-124.928847-49.236939-21.310974-92.594886 2.204997-87.450893 58.054929 12.492985 109.496865 35.273957 268.965669 35.273957 268.965669S91.123888 354.081407 13.227984 442.266298c-27.924966 32.33496-9.551988 77.896904 44.827945 85.980895 111.701863 19.841976 284.39765 51.441937 284.39765 51.441936s94.797883 163.143799 154.32381 263.086676C529.847348 903.77073 552.62932 896.421739 556.303315 894.951741c10.287987-2.939996 26.455967-15.431981 47.032943-52.175936 58.789928-99.943877 152.119813-263.087676 152.119812-263.087676s170.49179-31.599961 280.723655-51.441936c53.645934-8.08399 71.282912-54.379933 44.092946-85.979895z"  horiz-adv-x="1092" />

    
    <glyph glyph-name="close" unicode="&#59276;" d="M837.45296711 121.31265922l-266.66269511 266.6626951 258.70279407 258.70279408c11.9401344 11.9401344 15.92015563 39.80042442 0 55.72058004-15.92015563 15.92015563-43.78044565 11.9401344-59.70060127-3.98002123l-258.70279407-258.70279407L252.38602813 698.41955574c-11.94011318 19.90019807-43.78044565 19.90017685-59.70060127 3.98002123s-11.9401344-43.78044565 0-55.72058005l258.70279407-258.70279407-258.70279407-258.70279407c-11.94011318-19.90019807-15.92015563-47.76046688 0-63.6806225s43.78044565-11.9401344 55.72058004 0l262.68309814 262.68309814 262.68309815-262.68309814c15.92015563-15.92015563 43.78044565-11.9401344 55.72058004 0s23.88019808 39.80042442 7.96004246 55.72058004Z"  horiz-adv-x="1027" />

    
    <glyph glyph-name="cha" unicode="&#58887;" d="M512.07910156-64.88906250000002C264.14316406-64.88906250000002 62.39638672 136.69863281000005 62.39638672 384.63457031S264.14316406 834 512.07998047 834s449.36455078-201.74589844 449.36455078-449.36542969-201.74589844-449.52363281-449.36542969-449.52363281z m0 854.12724609c-223.17451172 0-404.60273438-181.58730469-404.60273437-404.60361328S289.06367187-19.96816406000005 512.07910156-19.96816406000005 916.36542969 161.61914062000005 916.36542969 384.63457031 734.93632813 789.2381835900001 512.07910156 789.2381835900001zM670.49228516 203.52363280999998c-6.03193359 0-11.74658203 2.38183594-16.03125 6.50830078l-142.85742188 142.69833985-142.54013672-142.69921875c-5.55556641-6.19013672-13.96845703-8.72929687-22.22226562-6.665625-7.93652344 2.06279297-14.12666016 8.41201172-16.34941406 16.34853515-2.06279297 7.93652344 0.47636719 16.50849609 6.6665039 22.22226563l142.85742188 142.85742187-142.85742188 142.69921875c-8.72929687 8.72929687-8.72929687 23.01503906 0 31.74521485s23.01591797 8.73017578 31.74609375 0l142.85742188-142.85742188 142.69921875 142.85742188c5.5546875 6.19013672 13.96757812 8.73017578 22.22138672 6.6665039 7.93652344-2.06367187 14.12753906-8.41289063 16.34941406-16.34941406 2.06367187-7.93652344-0.47636719-16.50761719-6.66650391-22.22226562l-142.85742187-142.85742188 142.85742187-142.69746094c6.34921875-6.34921875 8.41201172-16.03125 4.92011719-24.44501953-3.49189453-8.25292969-11.74570313-13.809375-20.79316406-13.809375z"  horiz-adv-x="1024" />

    
    <glyph glyph-name="arrow-top" unicode="&#58886;" d="M34.13333333 145.06666668000003c0 9.6 3.41333333 19.30666667 10.24 26.66666665L487.25333333 649.6c13.65333333 14.72 35.84 14.72 49.49333334 0L979.62666667 171.73333333000005c13.65333333-14.72 13.65333333-38.61333333 0-53.33333333-13.65333333-14.72-35.84-14.72-49.49333334 0L512 569.6l-418.13333333-451.2c-13.65333333-14.72-35.84-14.72-49.49333334 0-6.82666667 7.35999999-10.23999999 17.06666667-10.24 26.66666668z"  horiz-adv-x="1024" />

    
    <glyph glyph-name="-back" unicode="&#59273;" d="M750.93333332-93.86666666999997c-9.6 0-19.30666667 3.41333333-26.66666665 10.24L246.4 359.25333333000003c-14.72 13.65333333-14.72 35.84 0 49.49333334L724.26666667 851.62666667c14.72 13.65333333 38.61333333 13.65333333 53.33333333 0 14.72-13.65333333 14.72-35.84 0-49.49333334L326.4 384l451.2-418.13333333c14.72-13.65333333 14.72-35.84 0-49.49333334-7.35999999-6.82666667-17.06666667-10.23999999-26.66666668-10.24z"  horiz-adv-x="1024" />

    
    <glyph glyph-name="arrow-right" unicode="&#59274;" d="M273.06666668 861.86666667c9.6 0 19.30666667-3.41333333 26.66666665-10.24L777.6 408.74666667c14.72-13.65333333 14.72-35.84 0-49.49333334L299.73333333-83.62666666999996c-14.72-13.65333333-38.61333333-13.65333333-53.33333333 0-14.72 13.65333333-14.72 35.84 0 49.49333334L697.6 384l-451.2 418.13333333c-14.72 13.65333333-14.72 35.84 0 49.49333334 7.35999999 6.82666667 17.06666667 10.23999999 26.66666668 10.24z"  horiz-adv-x="1024" />

    
    <glyph glyph-name="arrow-bottom" unicode="&#59275;" d="M989.86666667 622.93333332c0-9.6-3.41333333-19.30666667-10.24-26.66666665L536.74666667 118.39999999999998c-13.65333333-14.72-35.84-14.72-49.49333334 0L44.37333333 596.26666667c-13.65333333 14.72-13.65333333 38.61333333 0 53.33333333 13.65333333 14.72 35.84 14.72 49.49333334 0L512 198.39999999999998l418.13333333 451.2c13.65333333 14.72 35.84 14.72 49.49333334 0 6.82666667-7.35999999 10.23999999-17.06666667 10.24-26.66666668z"  horiz-adv-x="1024" />

    
    <glyph glyph-name="-home" unicode="&#58892;" d="M820.48 54.39999999999998H203.52c-68.48 0-124.16 55.68-124.16 124.16v582.4h865.28v-581.76c0-69.12-55.68-124.8-124.16-124.8zM150.4 689.92v-510.72c0-29.44 23.68-53.12 53.12-53.12h616.32c29.44 0 53.12 23.68 53.12 53.12V689.92H150.4zM988.16 689.92H35.84c-19.84 0-35.84 15.36-35.84 35.2s16 35.84 35.84 35.84h952.96c19.84 0 35.84-16 35.84-35.84s-16.64-35.2-36.48-35.2zM512 689.92a35.84 35.84 0 0 0-35.84 35.84V837.76a35.84 35.84 0 1 0 71.68 0v-112.64c0-19.84-16-35.2-35.84-35.2zM255.36 254.08000000000004a36.48 36.48 0 0 0-26.88 12.16c-12.8 14.72-11.52 37.12 3.84 49.92l137.6 119.68c12.16 10.24 28.8 11.52 42.24 3.2l150.4-95.36 172.8 169.6c14.08 14.08 36.48 13.44 50.56-0.64 14.08-14.08 13.44-36.48-0.64-50.56L592 273.28c-11.52-11.52-30.08-13.44-43.52-4.48L396.8 364.79999999999995 278.4 262.4c-6.4-5.76-14.72-8.32-23.04-8.32zM244.48-102.39999999999998a35.52 35.52 0 0 0-24.96 60.8l151.04 151.04c14.08 14.08 36.48 14.08 50.56 0 14.08-14.08 14.08-36.48 0-50.56l-151.04-151.04c-7.68-6.4-16.64-10.24-25.6-10.24zM793.6-102.39999999999998c-8.96 0-17.92 3.2-24.96 10.24l-151.04 151.04a35.52 35.52 0 0 0 0 50.56c14.08 14.08 36.48 14.08 50.56 0l151.04-151.04c14.08-14.08 14.08-36.48 0-50.56-7.68-6.4-16.64-10.24-25.6-10.24z"  horiz-adv-x="1024" />

    
    <glyph glyph-name="-order" unicode="&#58895;" d="M778.88-116.48000000000002h-569.6c-71.04 0-129.28 54.4-129.28 120.96V659.84c0 66.56 58.24 120.96 129.28 120.96h94.72c19.2 0 34.56-15.36 34.56-34.56s-14.72-34.56-33.92-34.56H209.92c-33.28 0-60.16-23.04-60.16-51.84v-655.36c0-28.8 26.88-51.84 60.16-51.84h569.6c33.28 0 60.16 23.04 60.16 51.84V659.84c0 28.8-26.88 51.84-60.16 51.84H684.8c-19.2 0-34.56 15.36-34.56 34.56s15.36 34.56 34.56 34.56h94.72c71.04 0 129.28-54.4 129.28-120.96v-655.36c0-66.56-58.24-120.96-129.92-120.96zM624.64 642.56H364.16c-42.24 0-76.8 34.56-76.8 76.8V807.6800000000001c0 42.24 34.56 76.8 76.8 76.8h260.48c42.24 0 76.8-34.56 76.8-76.8v-88.32c0-42.24-34.56-76.8-76.8-76.8z m-260.48 172.8c-4.48 0-7.68-3.2-7.68-7.68v-88.32c0-4.48 3.2-7.68 7.68-7.68h260.48c4.48 0 7.68 3.2 7.68 7.68V807.6800000000001c0 4.48-3.2 7.68-7.68 7.68H364.16zM701.44 446.08H287.36c-19.2 0-34.56 15.36-34.56 34.56s15.36 34.56 34.56 34.56h414.08c19.2 0 34.56-15.36 34.56-34.56s-15.36-34.56-34.56-34.56zM701.44 249.60000000000002H287.36c-19.2 0-34.56 15.36-34.56 34.56 0 19.2 15.36 34.56 34.56 34.56h414.08c19.2 0 34.56-15.36 34.56-34.56 0-19.2-15.36-34.56-34.56-34.56z"  horiz-adv-x="1024" />

    
    <glyph glyph-name="-mine" unicode="&#58896;" d="M667.52 60.15999999999997c-18.56 0-33.92 14.08-35.2 32.64-1.92 32.64 9.6 63.36 32.64 86.4 41.6 41.6 108.16 43.52 152.32 6.4 44.16 37.76 110.72 35.2 152.32-6.4 23.04-23.04 35.2-54.4 32.64-86.4-1.28-19.2-17.28-33.92-37.12-33.28a35.52 35.52 0 0 0-33.28 37.12 42.88 42.88 0 0 1-12.16 32 42.24 42.24 0 0 1-59.52 0l-17.92-17.92c-14.08-14.08-35.84-14.08-49.92 0l-17.92 17.92a42.24 42.24 0 0 1-59.52 0c-8.96-8.96-12.8-19.84-12.16-32 1.28-19.2-13.44-36.48-32.64-37.76-0.64 1.28-1.92 1.28-2.56 1.28zM817.28-115.84000000000003c-5.76 0-11.52 1.28-16.64 4.48-171.52 92.8-168.96 198.4-168.32 209.92 1.28 19.2 18.56 34.56 37.76 32.64 19.2-1.28 33.92-17.92 32.64-37.12 0-3.2 2.56-74.24 131.2-143.36 17.28-8.96 23.68-30.72 14.08-48-5.76-11.52-17.92-18.56-30.72-18.56zM817.92-115.84000000000003c-12.8 0-24.96 7.04-31.36 18.56-8.96 17.28-2.56 38.4 14.08 48 131.2 70.4 131.2 142.72 131.2 143.36 0 19.2 14.72 35.2 33.92 36.48 18.56 0.64 35.2-13.44 36.48-32 0.64-11.52 3.2-117.12-168.32-209.92-5.12-3.2-10.88-4.48-16-4.48zM528.64 317.44000000000005c-155.52 0-282.88 126.72-282.88 282.88S372.48 883.2 528.64 883.2s282.88-126.72 282.88-282.88-126.72-282.88-282.88-282.88z m0 494.72c-117.12 0-211.84-95.36-211.84-211.84s95.36-211.84 211.84-211.84c117.12 0 211.84 95.36 211.84 211.84s-94.72 211.84-211.84 211.84zM104.96-106.24000000000001c-19.2 0-35.2 16-35.2 35.2 0 253.44 206.08 459.52 459.52 459.52 96.64 0 189.44-30.08 268.16-86.4 16-11.52 19.2-33.28 8.32-49.28-11.52-16-33.28-19.2-49.28-8.32a384.128 384.128 0 0 1-226.56 72.96c-214.4 0-388.48-174.08-388.48-388.48a37.12 37.12 0 0 0-36.48-35.2z"  horiz-adv-x="1024" />

    


  </font>
</defs>
</svg>
